1С Интерес GamePark.ru
Audiomania
+ Ответить в теме
Показано с 1 по 4 из 4

Тема: Импорт: Буржуйские музыкальные 4K Ultra HD Blu-ray

  1. #1
    Administrator coolhdtv has a spectacular aura about Аватар для coolhdtv
    Регистрация
    03.05.2008
    Сообщений
    53
    Сказал(а) спасибо
    0
    Поблагодарили 15 раз(а) в 13 постах

    По умолчанию Импорт: Буржуйские музыкальные 4K Ultra HD Blu-ray



    Michael Schenker's Temple of Rock: On a Mission - Live in Madrid (United States)
    4K Ultra HD
    in-akustik | 2016 | 95 min | Rated Exempt | Aug 12, 2016

    Mozart: Le Nozze di Figaro (United States)
    2015 Salzburg Festival / 4K Ultra HD
    EUROARTS | 2015 | 192 min | Rated Exempt | Jan 06, 2017

    Sammi Cheng: Touch Mi 2 (Hong Kong)
    4K Ultra HD
    Warner Music | 2016 | 125 min | Not rated | May 25, 2017

    Wagner: Lohengrin (United States)
    Staatskapelle Dresden / 4K Ultra HD
    Deutsche Grammophon | 2016 | 215 min | Not rated | Jul 21, 2017

    Khatia Buniatishvili & Zubin Mehta: Liszt & Beethoven (Germany)
    4K Ultra HD + Blu-ray
    Alive | 57 min | Jul 21, 2017

    Jane's Addiction: Ritual de lo Habitual - Alive at 25 (Germany)
    4K Ultra HD + Blu-ray + DVD + CD
    2015 | 85 min | Aug 25, 2017

    Puccini: Tosca 4K Blu-ray (United States)
    4K Ultra HD + Blu-ray
    Arthaus Musik | 2001 | 125 min | Rated Exempt | Oct 06, 2017

    Boowy: 1224 -THE ORIGINAL- (Japan)
    Boøwy / 4K Ultra HD + Blu-ray
    Universal Music | 2017 | 98 min | Not rated | Dec 24, 2017

    Puccini: Turandot (Germany)
    4K Ultra HD + Blu-ray
    Alive | 2016 | 133 min | Rated FSK-0 | Mar 16, 2018

  2. #2
    Administrator coolhdtv has a spectacular aura about Аватар для coolhdtv
    Регистрация
    03.05.2008
    Сообщений
    53
    Сказал(а) спасибо
    0
    Поблагодарили 15 раз(а) в 13 постах

    По умолчанию

    Mozart: Le Nozze di Figaro 4K Blu-ray

    Первая опера, выпущенная на 4K Ultra HD Blu-ray. Существенный прирост в картинке, снималось в реальном 50 фпс.




    Код:
    Disc Size:      62,368,383,564 bytes
    Protection:     AACS2
    BD-Java:        No
    Extras:         Ultra HD, 50Hz Content
    BDInfo:         0.5.8.7
    
    PLAYLIST REPORT:
    
    Name:                   00000.MPLS  
    Length:                 3:12:21.780 (h:m:s.ms)
    Size:                   58,582,628,352 bytes
    Total Bitrate:          40.61 Mbps
    
    VIDEO:
    
    Codec                   Bitrate             Description     
    -----                   -------             -----------     
    MPEG-H HEVC Video       27274 kbps          2160p / 50 fps / 16:9 / Main 10 Profile 5.1 High / 4:2:0 / 10 bits / SDR / BT.709 / 
    
    AUDIO:
    
    Codec                           Language        Bitrate         Description     
    -----                           --------        -------         -----------     
    LPCM Audio                      Italian         4608 kbps       2.0 / 96 kHz / 4608 kbps / 24-bit
    DTS-HD Master Audio             Italian         6100 kbps       5.0 / 96 kHz / 6100 kbps / 24-bit (DTS Core: 5.0 / 48 kHz / 1509 kbps / 24-bit)
    
    SUBTITLES:
    
    Codec                           Language        Bitrate         Description     
    -----                           --------        -------         -----------     
    Presentation Graphics           English         22.788 kbps                     
    Presentation Graphics           German          24.43 kbps                      
    Presentation Graphics           French          22.99 kbps                      
    Presentation Graphics           Spanish         20.443 kbps                     
    Presentation Graphics           Italian         20.603 kbps                     
    Presentation Graphics           Japanese        17.841 kbps                     
    Presentation Graphics           Korean          20.424 kbps                     
    Presentation Graphics           English         45.745 kbps                     
    Presentation Graphics           German          45.769 kbps                     
    Presentation Graphics           Japanese        45.701 kbps                     
    Presentation Graphics           English         72.771 kbps                     
    Presentation Graphics           German          74.868 kbps                     
    Presentation Graphics           Japanese        65.56 kbps                      
    
    FILES:
    
    Name            Time In         Length          Size            Total Bitrate   
    ----            -------         ------          ----            -------------   
    00000.M2TS      0:00:00.000     3:12:15.040     58,579,968,000  40,627 kbps     
    00008.M2TS      3:12:15.040     0:00:06.540     2,242,560       2,743 kbps      
    00007.M2TS      3:12:21.580     0:00:00.200     417,792         16,711 kbps

  3. #3
    Administrator sermak is a glorious beacon of lightsermak is a glorious beacon of lightsermak is a glorious beacon of lightsermak is a glorious beacon of lightsermak is a glorious beacon of light Аватар для sermak
    Регистрация
    01.05.2008
    Сообщений
    619
    Сказал(а) спасибо
    4
    Поблагодарили 61 раз(а) в 54 постах

    По умолчанию

    Смотрели на днях у знакомого 4K диск Michael Schenker's Temple of Rock

    не заметил какой-то прибавки в качестве и проблема в самом материале на диске
    телек 65 дюймов, топовый плеер от сони

  4. #4
    HD-новичок mft39 is on a distinguished road Аватар для mft39
    Регистрация
    04.05.2009
    Сообщений
    6
    Сказал(а) спасибо
    1
    Поблагодарили 1 раз в 1 сообщении

    По умолчанию

    IVPvz1K.jpg

    Код:
    DISC INFO:
    
    Disc Title:     Puccini.-.Turandot.2016.COMPLETE.UHD.BLURAY
    Disc Size:      61 704 975 790 bytes
    Protection:     AACS
    BD-Java:        No
    BDInfo:         0.7.1
    
    PLAYLIST REPORT:
    
    Name:                   00006.MPLS
    Length:                 2:13:10.833 (h:m:s.ms)
    Size:                   56 434 966 464 bytes
    Total Bitrate:          56,50 Mbps
    
    VIDEO:
    
    Codec                   Bitrate             Description    
    -----                   -------             -----------    
    HEVC Video              49795 kbps          2160p / 24 fps / 16:9
    
    AUDIO:
    
    Codec                           Language        Bitrate         Description    
    -----                           --------        -------         -----------    
    DTS-HD Master Audio             Italian         3882 kbps       5.1 / 48 kHz / 3882 kbps / 24-bit (DTS Core: 5.1 / 48 kHz / 1509 kbps / 24-bit / DN -4dB)
    
    SUBTITLES:
    
    Codec                           Language        Bitrate         Description    
    -----                           --------        -------         -----------    
    Presentation Graphics           German          21,664 kbps                    
    Presentation Graphics           English         18,634 kbps                    
    Presentation Graphics           French          18,955 kbps                    
    Presentation Graphics           Korean          18,161 kbps                    
    Presentation Graphics           Japanese        22,177 kbps                    
    
    FILES:
    
    Name            Time In         Length          Size            Total Bitrate  
    ----            -------         ------          ----            -------------  
    00006.M2TS      0:00:00.000     2:13:10.833     56 434 966 464  56 499          
    
    CHAPTERS:
    
    Number          Time In         Length          Avg Video Rate  Max 1-Sec Rate  Max 1-Sec Time  Max 5-Sec Rate  Max 5-Sec Time  Max 10Sec Rate  Max 10Sec Time  Avg Frame Size  Max Frame Size  Max Frame Time  
    ------          -------         ------          --------------  --------------  --------------  --------------  --------------  --------------  --------------  --------------  --------------  --------------  
    1               0:00:00.000     0:34:59.750     43 210 kbps     84 087 kbps     00:24:38.875    74 326 kbps     00:24:37.541    69 058 kbps     00:15:02.375    0 bytes         1 383 714 bytes 00:17:40.291    
    2               0:34:59.750     0:15:38.250     53 364 kbps     89 397 kbps     00:50:25.041    79 358 kbps     00:50:22.458    77 966 kbps     00:50:19.083    0 bytes         1 440 958 bytes 00:35:03.083    
    3               0:50:38.000     0:32:30.000     52 059 kbps     93 313 kbps     01:13:42.625    83 609 kbps     01:13:39.625    77 418 kbps     00:57:44.041    0 bytes         1 802 860 bytes 00:50:59.333    
    4               1:23:08.000     0:27:40.416     47 684 kbps     90 724 kbps     01:24:05.083    80 804 kbps     01:24:05.083    74 353 kbps     01:24:03.083    0 bytes         1 444 212 bytes 01:28:30.125    
    5               1:50:48.416     0:22:22.416     56 922 kbps     118 715 kbps    02:13:07.041    87 787 kbps     02:13:04.041    82 826 kbps     02:12:59.875    0 bytes         2 057 095 bytes 01:54:13.375    
    
    STREAM DIAGNOSTICS:
    
    File            PID             Type            Codec           Language                Seconds                 Bitrate                 Bytes           Packets        
    ----            ---             ----            -----           --------                --------------          --------------          -------------   -----          
    00006.M2TS      4113 (0x1011)   0x24            HEVC                                    7990,708                49 796                  49 737 718 940  270 427 601    
    00006.M2TS      4352 (0x1100)   0x86            DTS-HD MA       ita (Italian)           7990,708                3 883                   3 878 037 432   22 321 887      
    00006.M2TS      4768 (0x12A0)   0x90            PGS             deu (German)            7990,708                22                      21 639 472      126 603        
    00006.M2TS      4769 (0x12A1)   0x90            PGS             eng (English)           7990,708                19                      18 613 058      110 161        
    00006.M2TS      4770 (0x12A2)   0x90            PGS             fra (French)            7990,708                19                      18 933 818      111 953        
    00006.M2TS      4771 (0x12A3)   0x90            PGS             kor (Korean)            7990,708                18                      18 140 510      107 594        
    00006.M2TS      4772 (0x12A4)   0x90            PGS             jpn (Japanese)          7990,708                22                      22 151 363      129 252















+ Ответить в теме

Похожие темы

  1. Меняю на музыкальные Blu-ray или продаю
    от bad17 в разделе Музыкальное видео на Blu-ray
    Ответов: 3
    Последнее сообщение: 26.04.2018, 20:34
  2. Тестовое вещание в формате Ultra HDTV 4K
    от sermak в разделе Реалии и перспективы HDTV-телевещания
    Ответов: 5
    Последнее сообщение: 08.03.2015, 15:01
  3. Ответов: 19
    Последнее сообщение: 19.12.2011, 14:23
  4. Проблема с Power DVD 9 Ultra
    от krek63 в разделе Просмотр и редактирование HD-аудио и видео
    Ответов: 5
    Последнее сообщение: 05.08.2009, 17:28
  5. DUNE HD Ultra
    от dreamless в разделе HDI Dune
    Ответов: 4
    Последнее сообщение: 07.03.2009, 01:14

Ваши права

  • Вы не можете создавать новые темы
  • Вы не можете отвечать в темах
  • Вы не можете прикреплять вложения
  • Вы не можете редактировать свои сообщения